ru.unix.bsd

 
 - RU.UNIX.BSD ------------------------------------------------------------------
 From : Vadim Tzirulnicov                    2:5020/1906.11 04 Mar 2008  00:26:16
 To : All
 Subject : MPEG4->iPhone
 -------------------------------------------------------------------------------- 
 
 _**_           
 
    MPEG4,     iPhone  . ?
 
 ffmpeg -acodec libfaac -ab 128kb -s 320x240 -vcodec mpeg4 -qscale 5 -mbd 2 \
 -flags +4mv+trell -aic 2 -cmp 2 -subcmp 2 -title $1 $1.mp4 -i $1
 
   Duration: 01:21:51.9, start: 0.000000, bitrate: 1339 kb/s
   Stream #0.0: Video: mpeg4, yuv420p, 720x480, 25.00 fps(r)
   Stream #0.1: Audio: mp3, 48000 Hz, stereo, 128 kb/s
 Output #0, mp4, to 'test.avi.mp4':
   Stream #0.0: Video: mpeg4 (hq), yuv420p, 320x240, q=2-31, 200 kb/s, 25.00 fps(
 c)
   Stream #0.1: Audio: libfaac, 44100 Hz, mono, 128 kb/s
 Stream mapping:
   Stream #0.0 -> #0.0
   Stream #0.1 -> #0.1
 
     iPhone -   ,  
  . :(   ?
 
                 ͻ H    ... Bye _*All*_ !
                          
 ... H     ...
 --- GoldEd 3.00.Beta5+ & Fido Master 2000
  * Origin: Ha p       . (2:5020/1906.11)
 
 

, :        

 :    :    :  
 MPEG4->iPhone   Vadim Tzirulnicov   04 Mar 2008 00:26:16 
.
Valid HTML 4.01 Transitional